osu file format v14

[General]
AudioFilename: The Raising Fighting Spirit.mp3
AudioLeadIn: 1500
PreviewTime: 21060
Countdown: 0
SampleSet: Normal
StackLeniency: 0.6
Mode: 0
LetterboxInBreaks: 0
WidescreenStoryboard: 0

[Editor]
DistanceSpacing: 1.6
BeatDivisor: 6
GridSize: 4
TimelineZoom: 1.5

[Metadata]
Title:Wakiagaru Toushi
TitleUnicode:沸き上がる闘志
Artist:TOSHIO MASUDA
ArtistUnicode:増田俊郎
Creator:liangv587
Version:Hard
Source:NARUTO-ナルト-
Tags:火影忍者 AIR The Raising Fighting Spirit
BeatmapID:404023
BeatmapSetID:166185

[Difficulty]
HPDrainRate:6
CircleSize:3
OverallDifficulty:6
ApproachRate:7
SliderMultiplier:1.8
SliderTickRate:1

[Events]
//Background and Video events
0,0,"nntssk.jpg",0,0
//Break Periods
//Storyboard Layer 0 (Background)
//Storyboard Layer 1 (Fail)
//Storyboard Layer 2 (Pass)
//Storyboard Layer 3 (Foreground)
//Storyboard Sound Samples

[TimingPoints]
560,428.571428571429,4,1,1,30,1,0
5988,-100,4,1,1,40,0,0
6417,-100,4,1,1,50,0,0
6845,-100,4,1,1,60,0,0
7345,-100,4,1,1,50,0,0
21060,-100,4,1,1,60,0,0
48488,-100,4,2,1,60,0,0
60488,-100,4,1,1,60,0,0
62274,-100,4,1,1,60,0,1
75131,-133.333333333333,4,2,1,50,0,0
75702,-133.333333333333,4,2,1,30,0,0
75845,-133.333333333333,4,2,1,15,0,0
75988,-100,4,1,1,50,0,0
92131,-100,4,1,1,20,0,0
92845,-100,4,2,1,5,0,0

[Colours]
Combo1 : 128,64,64
Combo2 : 255,128,0
Combo3 : 223,32,128
Combo4 : 64,32,96

[HitObjects]
256,192,5702,12,4,6988,0:0:0:0:
96,112,7417,6,0,B|87:132|85:153|88:173,2,60,4|0|0,0:0|0:0|0:0,0:0:0:0:
184,156,7845,2,0,B|180:187|192:216,2,60,8|0|0,0:2|0:0|0:0,0:0:0:0:
284,172,8274,2,0,B|299:214|335:242|375:248,1,120,0|0,0:0|0:0,0:0:0:0:
400,128,8702,2,0,B|421:142|446:145|468:140,2,60,8|0|0,0:0|0:0|0:0,0:0:0:0:
308,76,9131,6,0,B|276:59|240:56,2,60,0|0|0,0:0|0:0|0:0,0:0:0:0:
284,172,9560,2,0,B|249:159|212:160,2,60,8|0|0,0:2|0:0|0:0,0:0:0:0:
264,268,9988,2,0,B|200:262|140:280,1,120,4|0,0:2|0:0,0:0:0:0:
36,196,10417,2,0,B|100:202|160:184,1,120,4|0,0:0|0:0,0:0:0:0:
208,92,10845,6,0,B|204:59|216:28,2,60,4|0|0,0:2|0:0|0:0,0:0:0:0:
308,76,11274,2,0,B|312:54|324:36|340:24,2,60,8|0|0,0:2|0:0|0:0,0:0:0:0:
400,96,11702,2,0,B|445:95|484:118|508:152,1,120,0|0,0:0|0:0,0:0:0:0:
408,212,12131,2,0,L|436:280,1,60,8|8,0:0|0:2,0:0:0:0:
320,276,12417,2,0,L|312:340,1,60,8|0,0:2|0:0,0:0:0:0:
215,268,12702,5,4,0:2:0:0:
215,268,12988,2,0,B|194:221|144:198|94:209|63:241,1,180,4|0,0:2|0:0,0:0:0:0:
128,312,13560,1,4,0:2:0:0:
128,312,13845,2,0,B|148:349|189:368|227:363,1,120,4|8,0:2|0:3,0:0:0:0:
320,276,14274,6,0,B|321:300|332:321|348:336,2,60,4|0|0,0:0|0:0|0:0,0:0:0:0:
368,180,14702,2,0,B|367:156|356:135|340:120,2,60,8|0|0,0:2|0:0|0:0,0:0:0:0:
256,96,15131,2,0,B|267:52|309:26|351:32,1,120,0|0,0:0|0:0,0:0:0:0:
280,180,15560,2,0,B|256:188|231:184|212:172,2,60,8|0|0,0:0|0:0|0:0,0:0:0:0:
176,112,15988,6,0,B|174:88|162:69|144:56,2,60,0|0|0,0:0|0:0|0:0,0:0:0:0:
128,192,16417,2,0,B|130:216|142:235|160:248,2,60,8|0|0,0:2|0:0|0:0,0:0:0:0:
240,260,16845,2,0,B|234:304|195:335|153:332,1,120,4|0,0:2|0:0,0:0:0:0:
208,184,17274,2,0,B|252:164|304:189|316:236,1,120,4|0,0:0|0:0,0:0:0:0:
412,176,17702,6,0,B|424:207|420:240,2,60,4|0|0,0:2|0:0|0:0,0:0:0:0:
320,112,18131,2,0,B|308:81|312:48,2,60,8|0|0,0:2|0:0|0:0,0:0:0:0:
312,220,18560,2,0,B|333:258|321:303|289:328,1,120,0|0,0:0|0:0,0:0:0:0:
180,248,18988,2,0,L|240:260,1,60,8|0,0:0|0:0,0:0:0:0:
196,344,19274,2,0,L|128:328,1,60,8|8,0:2|0:3,0:0:0:0:
92,232,19560,5,4,0:2:0:0:
92,232,19845,2,0,B|71:194|83:149|115:124,1,120,4|0,0:2|0:0,0:0:0:0:
180,196,20274,2,0,L|180:236,2,30,4|8|8,0:2|0:2|0:2,0:0:0:0:
248,128,20560,1,8,0:3:0:0:
236,32,20702,1,4,0:2:0:0:
329,62,20845,2,0,L|361:62,2,30,8|8|8,0:2|0:2|0:2,0:0:0:0:
348,156,21131,6,0,B|404:220|348:268|400:328,1,180,4|8,0:0|0:0,0:0:0:0:
288,299,21702,2,0,B|265:295|242:300|224:311,1,60,,,0:0:0:0:
152,368,21988,2,0,B|142:325|119:289|87:263,1,120,0|0,0:0|0:0,0:0:0:0:
16,200,22417,2,0,B|59:197|94:173|114:139,1,120,8|0,0:2|0:0,0:0:0:0:
113,39,22845,6,0,B|102:102|130:162|179:195,1,180,2|8,0:3|0:0,0:0:0:0:
276,184,23417,2,0,L|344:148,1,60,0|0,0:0|0:0,0:0:0:0:
436,280,23702,2,0,B|389:261|340:257|294:264,1,120,0|0,0:2|0:0,0:0:0:0:
231,309,24131,1,8,0:2:0:0:
152,368,24274,2,0,L|76:344,1,60,0|0,0:0|0:0,0:0:0:0:
22,262,24560,6,0,B|69:214|137:202|195:223,1,180,4|8,0:2|0:0,0:0:0:0:
224,131,25131,2,0,B|230:93|222:56,1,60,0|0,0:0|0:0,0:0:0:0:
311,183,25417,2,0,B|358:187|401:170|432:140,1,120,0|0,0:0|0:0,0:0:0:0:
467,233,25845,2,0,B|485:273|470:319|437:343,1,120,8|0,0:2|0:0,0:0:0:0:
343,354,26274,6,0,L|280:378,2,60,2|0|0,0:3|0:0|0:0,0:0:0:0:
384,267,26702,2,0,L|371:208,2,60,8|0|0,0:0|0:0|0:0,0:0:0:0:
269,269,27131,2,0,B|247:207|251:142|275:87,1,180,0|8,0:0|0:2,0:0:0:0:
145,351,27988,6,0,B|100:360|56:340|32:305,1,120,4|0,0:2|0:0,0:0:0:0:
16,217,28417,2,0,L|42:149,2,60,8|0|0,0:0|0:0|0:0,0:0:0:0:
125,231,28845,2,0,B|168:230|204:205|221:170,1,120,0|0,0:0|0:0,0:0:0:0:
227,72,29274,2,0,B|184:73|148:98|131:133,1,120,8|0,0:2|0:0,0:0:0:0:
263,242,29702,6,0,B|324:248|382:230,1,120,2|0,0:3|0:0,0:0:0:0:
487,129,30131,1,8,0:0:0:0:
391,136,30274,2,0,L|317:141,1,60,,,0:0:0:0:
465,217,30560,2,0,B|473:263|466:308|448:346,1,120,,,0:0:0:0:
358,321,30988,1,8,0:2:0:0:
262,325,31131,2,0,L|188:330,1,60,0|0,0:0|0:0,0:0:0:0:
87,308,31417,6,0,B|65:322|52:344|47:367,2,60,4|0|0,0:2|0:0|0:0,0:0:0:0:
67,213,31845,2,0,B|43:209|20:213|0:223,2,60,8|0|0,0:0|0:0|0:0,0:0:0:0:
157,245,32274,2,0,B|174:203|158:156|122:133,1,120,0|0,0:0|0:0,0:0:0:0:
32,120,32702,1,8,0:2:0:0:
95,47,32845,2,0,B|112:29|134:19|156:17,2,60,8|8|8,0:2|0:0|0:3,0:0:0:0:
127,138,33274,5,4,0:2:0:0:
127,138,33560,2,0,B|177:136|205:93|205:93|236:50|284:49,1,180,4|0,0:2|0:0,0:0:0:0:
372,47,34131,1,4,0:2:0:0:
384,238,34417,2,0,B|341:265|291:271|247:259,1,120,4|0,0:2|0:0,0:0:0:0:
196,200,34845,6,0,B|162:236|172:286|172:286|181:339|147:373,1,180,4|8,0:0|0:0,0:0:0:0:
253,341,35417,2,0,B|275:331|298:332|318:341,1,60,,,0:0:0:0:
395,374,35702,2,0,B|389:331|401:291|425:260,1,120,0|0,0:0|0:0,0:0:0:0:
496,186,36131,2,0,B|453:183|418:159|398:125,1,120,8|0,0:2|0:0,0:0:0:0:
400,23,36560,6,0,B|411:86|383:146|334:179,1,180,2|8,0:3|0:0,0:0:0:0:
236,184,37131,2,0,L|168:148,1,60,0|0,0:0|0:0,0:0:0:0:
76,280,37416,2,0,B|123:261|172:257|218:264,1,120,0|0,0:0|0:0,0:0:0:0:
281,309,37845,1,8,0:2:0:0:
360,368,37988,2,0,L|436:344,1,60,0|0,0:0|0:0,0:0:0:0:
490,262,38274,6,0,B|443:214|375:202|317:223,1,180,4|8,0:2|0:0,0:0:0:0:
288,131,38845,2,0,B|282:93|290:56,1,60,0|0,0:0|0:0,0:0:0:0:
201,183,39131,2,0,B|154:187|111:170|80:140,1,120,0|0,0:0|0:0,0:0:0:0:
45,233,39559,2,0,B|27:273|42:319|75:343,1,120,8|0,0:2|0:0,0:0:0:0:
169,354,39988,6,0,L|232:378,2,60,2|0|0,0:3|0:0|0:0,0:0:0:0:
128,267,40416,2,0,L|140:208,2,60,8|0|0,0:0|0:0|0:0,0:0:0:0:
243,269,40845,2,0,B|265:207|261:142|237:87,1,180,0|8,0:0|0:2,0:0:0:0:
367,351,41702,6,0,B|412:360|456:340|480:305,1,120,4|0,0:2|0:0,0:0:0:0:
496,217,42131,2,0,L|470:149,2,60,8|0|0,0:0|0:0|0:0,0:0:0:0:
387,231,42559,2,0,B|344:230|308:205|291:170,1,120,0|0,0:0|0:0,0:0:0:0:
285,72,42988,2,0,B|328:73|364:98|381:133,1,120,8|0,0:2|0:0,0:0:0:0:
249,242,43416,6,0,B|188:250|130:234,1,120,2|0,0:3|0:0,0:0:0:0:
10,137,43845,1,8,0:0:0:0:
106,145,43988,2,0,L|180:150,1,60,0|0,0:0|0:0,0:0:0:0:
47,217,44274,2,0,B|42:278|59:335,1,120,,,0:0:0:0:
154,321,44702,1,8,0:2:0:0:
250,325,44845,2,0,L|324:330,1,60,0|0,0:0|0:0,0:0:0:0:
425,308,45131,6,0,B|447:322|460:344|465:367,2,60,4|0|0,0:2|0:0|0:0,0:0:0:0:
445,213,45559,2,0,B|469:209|492:213|512:223,2,60,8|0|0,0:0|0:0|0:0,0:0:0:0:
355,245,45988,2,0,B|338:203|354:156|390:133,1,120,0|0,0:0|0:0,0:0:0:0:
480,120,46417,2,0,L|509:143,4,30,8|8|8|0|8,0:2|0:2|0:2|0:0|0:3,0:0:0:0:
260,183,46988,5,4,0:2:0:0:
260,183,47274,2,0,B|234:139|255:93|255:93|274:43|249:2,1,180,4|0,0:2|0:0,0:0:0:0:
165,48,47845,5,0,0:0:0:0:
128,238,48131,2,0,B|164:260|205:268|243:263,1,120,8|8,0:2|0:3,0:0:0:0:
337,244,48560,6,0,L|331:318,2,60,4|0|0,0:0|0:0|0:0,0:0:0:0:
260,183,48988,2,0,B|224:161|183:153|145:158,1,120,0|0,1:0|0:0,0:0:0:0:
53,278,49417,2,0,L|61:342,2,60,2|0|0,0:0|0:0|0:0,0:0:0:0:
17,188,49845,2,0,B|8:137|17:88|39:46,1,120,0|0,1:0|0:0,0:0:0:0:
159,32,50274,5,2,0:0:0:0:
253,51,50417,2,0,B|269:67|280:86|285:106,1,60,0|0,0:0|0:0,0:0:0:0:
295,197,50702,1,0,1:0:0:0:
181,352,50988,1,0,0:0:0:0:
181,352,51131,1,2,0:0:0:0:
143,163,51417,1,0,0:0:0:0:
143,163,51560,1,0,1:0:0:0:
295,278,51845,1,0,0:0:0:0:
295,278,51988,5,2,0:0:0:0:
103,268,52274,1,0,0:0:0:0:
103,268,52417,1,0,1:0:0:0:
231,126,52702,1,0,0:0:0:0:
295,197,52845,2,0,L|369:188,1,60,2|0,0:0|0:0,0:0:0:0:
295,278,53131,2,0,L|235:285,1,60,0|0,0:0|1:0,0:0:0:0:
406,375,53560,1,0,0:0:0:0:
472,306,53702,6,0,B|492:240|478:173,1,120,2|0,0:0|0:0,0:0:0:0:
378,23,54274,2,0,B|359:83|371:145,1,120,0|2,0:0|0:0,0:0:0:0:
203,236,54845,1,0,0:0:0:0:
203,236,54988,1,0,1:0:0:0:
36,140,55274,1,0,0:0:0:0:
36,140,55417,5,6,0:0:0:0:
227,148,55702,1,0,0:0:0:0:
227,148,55845,1,0,1:0:0:0:
51,227,56131,1,0,0:0:0:0:
51,227,56274,1,2,0:0:0:0:
175,80,56560,1,0,0:0:0:0:
175,80,56702,1,0,1:0:0:0:
126,265,56988,1,0,0:0:0:0:
126,265,57131,5,2,0:0:0:0:
93,75,57417,1,0,0:0:0:0:
93,75,57560,2,0,L|155:46,1,60,0|0,1:0|0:0,0:0:0:0:
240,72,57845,1,0,0:0:0:0:
318,126,57988,2,0,B|366:137|413:133|456:117,2,120,2|0|0,0:0|0:0|0:0,0:0:0:0:
131,171,58845,6,0,L|68:213,2,60,2|0|0,0:0|0:0|0:0,0:0:0:0:
163,262,59274,2,0,L|143:318,1,60,0|0,1:0|0:0,0:0:0:0:
238,300,59560,2,0,L|253:360,1,60,0|2,0:0|0:0,0:0:0:0:
327,297,59845,2,0,L|380:337,2,60,0|0|8,0:0|0:0|0:2,0:0:0:0:
417,261,60274,2,0,L|498:272,1,60,8|8,0:2|0:0,0:0:0:0:
397,181,60560,6,0,L|403:152,1,30,0|0,0:0|3:0,0:0:0:0:
259,137,60845,2,0,L|266:107,1,30,0|0,0:0|3:0,0:0:0:0:
136,202,61131,2,0,L|144:234,1,30,0|0,0:0|3:0,0:0:0:0:
286,251,61417,2,0,L|294:295,1,30,0|0,0:0|3:0,0:0:0:0:
53,333,61845,2,0,L|34:364,2,30,8|8|8,0:2|0:2|0:2,0:0:0:0:
147,351,62131,1,8,0:0:0:0:
203,273,62274,6,0,B|221:180|200:88,1,180,4|8,0:0|0:2,0:0:0:0:
17,39,62988,1,0,0:0:0:0:
20,135,63131,2,0,B|63:133|98:104|110:66,1,120,8|0,0:2|0:0,0:0:0:0:
201,94,63560,2,0,B|241:76|284:77|320:92,1,120,8|0,0:0|0:0,0:0:0:0:
414,86,63988,6,0,L|460:36,2,60,2|0|0,0:3|0:0|0:0,0:0:0:0:
373,173,64417,2,0,L|391:301,1,120,8|0,0:2|0:0,0:0:0:0:
304,369,64845,2,0,L|279:188,1,180,8|8,0:2|0:0,0:0:0:0:
13,79,65702,6,0,B|79:87|139:59|178:13,1,180,4|8,0:2|0:2,0:0:0:0:
96,196,66417,1,0,0:0:0:0:
187,224,66560,2,0,L|204:345,1,120,8|0,0:2|0:0,0:0:0:0:
108,355,66988,2,0,L|44:375,2,60,8|0|0,0:0|0:0|0:0,0:0:0:0:
46,280,67417,6,0,L|24:141,1,120,2|0,0:3|0:0,0:0:0:0:
123,164,67845,2,0,L|258:123,1,120,4|0,0:2|0:0,0:0:0:0:
247,32,68274,2,0,L|225:10,2,30,8|8|8,0:2|0:3|0:3,0:0:0:0:
343,20,68560,1,8,0:3:0:0:
391,102,68702,2,0,L|456:102,1,60,8|0,0:0|0:0,0:0:0:0:
328,171,68988,1,0,0:0:0:0:
426,265,69131,6,0,B|333:283|241:262,1,180,4|8,0:2|0:2,0:0:0:0:
165,89,69845,1,0,0:0:0:0:
260,93,69988,2,0,B|258:136|229:171|191:183,1,120,8|0,0:2|0:0,0:0:0:0:
165,89,70417,2,0,B|123:73|80:80|45:101,1,120,8|0,0:0|0:0,0:0:0:0:
18,189,70845,6,0,L|9:249,2,60,2|0|0,0:3|0:0|0:0,0:0:0:0:
113,201,71274,2,0,L|95:329,1,120,8|0,0:2|0:0,0:0:0:0:
191,364,71702,2,0,L|216:183,1,180,8|8,0:2|0:0,0:0:0:0:
472,53,72560,6,0,L|455:171,1,120,4|0,0:2|0:0,0:0:0:0:
298,133,73131,1,0,0:0:0:0:
95,169,73417,2,0,L|215:185,1,120,4|0,0:2|0:0,0:0:0:0:
312,38,73988,1,0,0:0:0:0:
286,228,74274,5,4,0:2:0:0:
422,362,74560,1,8,0:0:0:0:
455,172,74845,1,8,0:2:0:0:
272,232,75131,1,4,0:2:0:0:
284,65,75560,6,0,B|326:58|367:66|402:85,1,112.500004291535,2|2,0:0|0:0,0:0:0:0:
416,112,75988,6,0,B|425:132|427:153|424:173,2,60,4|0|0,0:0|0:0|0:0,0:0:0:0:
328,156,76416,2,0,B|332:187|320:216,2,60,8|0|0,0:2|0:0|0:0,0:0:0:0:
228,172,76845,2,0,B|213:214|177:242|137:248,1,120,0|0,0:0|0:0,0:0:0:0:
112,128,77274,2,0,B|91:142|66:145|44:140,2,60,8|0|0,0:0|0:0|0:0,0:0:0:0:
204,76,77702,6,0,B|236:59|272:56,2,60,0|0|0,0:0|0:0|0:0,0:0:0:0:
228,172,78131,2,0,B|263:159|300:160,2,60,8|0|0,0:2|0:0|0:0,0:0:0:0:
248,268,78559,2,0,B|312:262|372:280,1,120,4|0,0:2|0:0,0:0:0:0:
476,196,78988,2,0,B|412:202|352:184,1,120,4|0,0:0|0:0,0:0:0:0:
304,92,79416,6,0,B|308:59|296:28,2,60,4|0|0,0:2|0:0|0:0,0:0:0:0:
204,76,79845,2,0,B|200:54|188:36|172:24,2,60,8|0|0,0:2|0:0|0:0,0:0:0:0:
112,96,80274,2,0,B|67:95|28:118|4:152,1,120,0|0,0:0|0:0,0:0:0:0:
104,212,80702,2,0,L|76:280,1,60,8|0,0:0|0:0,0:0:0:0:
192,276,80988,2,0,L|200:340,1,60,0|0,0:0|0:0,0:0:0:0:
297,268,81273,5,4,0:2:0:0:
297,268,81559,2,0,B|281:219|304:168|349:144|393:148,1,180,4|0,0:2|0:0,0:0:0:0:
445,228,82131,1,4,0:2:0:0:
445,228,82417,2,0,B|412:241|376:240,2,60,4|8|8,0:2|0:0|0:2,0:0:0:0:
488,142,82845,6,0,B|487:121|478:102|465:88,2,60,4|0|0,0:0|0:0|0:0,0:0:0:0:
392,148,83274,2,0,B|368:153|345:148|327:136,2,60,8|0|0,0:2|0:0|0:0,0:0:0:0:
375,52,83702,2,0,B|356:33|333:22|309:18,1,60,0|0,0:0|0:0,0:0:0:0:
250,84,83988,1,0,0:0:0:0:
244,179,84131,2,0,B|240:203|229:224|213:241,2,60,8|0|0,0:0|0:0|0:0,0:0:0:0:
156,70,84560,6,0,B|159:47|170:27|185:12,2,60,0|8|0,0:0|0:2|0:0,0:0:0:0:
151,166,84988,2,0,B|142:188|126:204|107:213,2,60,8|0|0,0:2|0:0|0:0,0:0:0:0:
26,207,85416,2,0,B|22:251|53:289|94:296,1,120,4|0,0:2|0:0,0:0:0:0:
261,331,85845,2,0,B|252:283|202:255|156:272,1,120,4|0,0:0|0:0,0:0:0:0:
240,200,86274,6,0,B|242:169|256:142,2,60,4|0|0,0:2|0:0|0:0,0:0:0:0:
330,233,86702,2,0,B|327:254|330:274|338:292,2,60,8|0|0,0:2|0:0|0:0,0:0:0:0:
425,249,87131,2,0,B|468:239|496:202|498:162,1,120,0|0,0:0|0:0,0:0:0:0:
402,155,87559,2,0,B|380:158|359:151|343:140,1,60,8|8,0:0|0:2,0:0:0:0:
443,36,87845,2,0,B|454:57|459:79|457:101,1,60,0|0,0:0|0:0,0:0:0:0:
347,49,88131,5,4,0:2:0:0:
347,49,88416,2,0,B|301:39|260:60|260:60|215:83|168:69,1,180,4|0,0:2|0:0,0:0:0:0:
83,31,88988,1,4,0:2:0:0:
83,31,89274,2,0,L|87:170,1,120,4|0,0:2|0:0,0:0:0:0:
20,247,89702,6,0,L|142:236,1,120,4|0,0:2|0:0,0:0:0:0:
331,219,90274,1,0,0:0:0:0:
492,323,90560,2,0,L|370:334,1,120,4|0,0:2|0:0,0:0:0:0:
181,351,91132,1,0,0:0:0:0:
256,174,91417,1,0,0:0:0:0:
256,192,91560,12,0,93131,0:0:0:0:
